[iPhone] Нефть / И будет кровь / There Will Be Blood (Пол Томас Андерсон / Paul Thomas Anderson) [2007, Драма, HDRip, 480x200]. Пол томас нефть


[iPad] Нефть / There Will Be Blood (Пол Томас Андерсон / Paul Thomas Anderson) [2007, драма, BDRip, 720p]

Нефть / There Will Be Blood

«When Ambition Meets Faith»

Страна: США Жанр: драмаГод выпуска: 2007Продолжительность: 02:38:26Перевод #1: Профессиональный (полное дублирование)Перевод #2: Профессиональный (многоголосый закадровый)Оригинальная аудиодорожка: АнглийскийСубтитры: Русские, АнглийскиеРежиссер: Пол Томас Андерсон / Paul Thomas AndersonВ ролях: Дэниэл Дэй-Льюис (Daniel Plainview), Пол Дано (Paul Sunday / Eli Sunday), Мартин Стрингер (Silver Assay Worker #1), Кевин Дж. О’Коннор (Henry Brands), Джейкоб Стрингер (Silver Assay Worker #3), Мэттью Браден Стрингер (Silver Assay Worker #2), Кьяран Хайндс (Fletcher Hamilton), Диллон Фризье (H.W. Plainview), Джозеф Массей (Silver Assay Worker #4), Бэрри Дел Шерман (H.B. Ailman), Расселл Харвард (H.W. Plainview - Older), Харрисон Тейлор (Baby HW)Дублёры: Артур Ваха (Daniel Plainview), Андрей Лёвин (Paul Sunday / Eli Sunday), Евгений Леонов-Гладышев (Henry Brands), Сергей Паршин (Fletcher Hamilton), Иван Чабан (H.W. Plainview), Марк Макаренков (Abel Sunday), Юрий Лазарев (Al Rose; Little Boston Doctor), Анатолий Дубанов (Gene Blaize), Юрий Герцман (H.M. Tilford), Борис Улитин (Bandy), Гелий Сысоев (Priest)Описание: Экранизация романа «Нефть» классика американской литературы Эптона Синклера. Действие книги происходит в конце 1920-х в Калифорнии и описывает взлет нефтедобывающей компании, принадлежащей амбициозному и бездушному магнату Плейнвью.Рейтингimdb.com: 8.20 (164 473)MPAA: R - Лицам до 17 лет обязательно присутствие взрослогоКачество видео: BDRip - Исходник BD RemuxФормат видео: m4vВидео кодек: H.264Аудио кодек: AACВидео: 1280х528 (2.40:1), 23,976 fps, H.264 3 400 kbps avg, 0.210 bit/pixelАудио #1: Russian, 48,0 kHz, AAC LC, 2 ch, 170 kbps avg | DUBАудио #2: Russian, 48,0 kHz, AAC LC, 2 ch, 144 kbps avg | MVOАудио #3: English, 48,0 kHz, AAC LC, 2 ch, 136 kbps avg | OriginalКод:

Код:

GeneralComplete name                            : D:\iPad\There Will Be Blood\There.Will.Be.Blood.BDRip.m4vFormat                                   : MPEG-4Codec ID                                 : M4VFile size                                : 4.27 GiBDuration                                 : 2h 38mnOverall bit rate mode                    : VariableOverall bit rate                         : 3 855 KbpsMovie name                               : НефтьPerformer                                : Пол Томас АндерсонGenre                                    : драмаRecorded date                            : UTC 2007-09-27 07:00:00Encoded date                             : UTC 2011-11-19 09:52:45Tagged date                              : UTC 2011-11-20 10:05:06Writing application                      : MkvToMp4 [www.mkvtomp4.ru] version 0.217Cover                                    : Yessoar                                     : Пол Томас Андерсонdesc                                     : Экранизация романа «Нефть» классика американской литературы Эптона Синклера. Действие книги происходит в конце 1920-х в Калифорнии и описывает взлет нефтедобывающей компанииldes                                     : Экранизация романа «Нефть» классика американской литературы Эптона Синклера. Действие книги происходит в конце 1920-х в Калифорнии и описывает взлет нефтедобывающей компании, принадлежащей амбициозному и бездушному магнату Плейнвью.hdvd                                     : 1stik                                     : 9cnID                                     : 278290639xid                                      : RG-Apple:vendor_id:2007-196604iTunEXTC                                 : mpaa|R|400|iTunMOVI                                 : <?xml version="1.0" encoding="UTF-8"?> / <!DOCTYPE plist PUBLIC "-//Apple//DTD PLIST 1.0//EN" "http://www.apple.com/DTDs/PropertyList-1.0.dtd"> / <plist version="1.0"> /  <dict> /   <key>cast</key> /   <array> /    <dict> /     <key>name</key> /     <string>Пол Дано</string> /    </dict> /    <dict> /     <key>name</key> /     <string>Дэниэл Дэй-Льюис</string> /    </dict> /    <dict> /     <key>name</key> /     <string>Мартин Стрингер</string> /    </dict> /    <dict> /     <key>name</key> /     <string>Кевин Дж. О`Коннор</string> /    </dict> /    <dict> /     <key>name</key> /     <string>Джейкоб Стрингер</string> /    </dict> /    <dict> /     <key>name</key> /     <string>Мэттью Браден Стрингер</string> /    </dict> /    <dict> /     <key>name</key> /     <string>Киаран Хиндс</string> /    </dict> /    <dict> /     <key>name</key> /     <string>Диллон Фризье</string> /    </dict> /    <dict> /     <key>name</key> /     <string>Джозеф Массей</string> /    </dict> /    <dict> /     <key>name</key> /     <string>Бэрри Дел Шерман</string> /    </dict> /    <dict> /     <key>name</key> /     <string>Расселл Харвард</string> /    </dict> /    <dict> /     <key>name</key> /     <string>Харрисон Тейлор</string> /    </dict> /    <dict> /     <key>name</key> /     <string>Стоктон Тейлор</string> /    </dict> /    <dict> /     <key>name</key> /     <string>Коллин Фой</string> /    </dict> /    <dict> /     <key>name</key> /     <string>Пол Ф. Томпкинс</string> /    </dict> /    <dict> /     <key>name</key> /     <string>Кевин Брезнахэн</string> /    </dict> /    <dict> /     <key>name</key> /     <string>Джим Мескимен</string> /    </dict> /    <dict> /     <key>name</key> /     <string>Эрика Салливан</string> /    </dict> /    <dict> /     <key>name</key> /     <string>Рэндолл Карвер</string> /    </dict> /    <dict> /     <key>name</key> /     <string>Коко Ли</string> /    </dict> /   </array> /   <key>directors</key> /   <array> /    <dict> /     <key>name</key> /     <string>Пол Томас Андерсон</string> /    </dict> /   </array> /   <key>producers</key> /   <array> /    <dict> /     <key>name</key> /     <string>Пол Томас Андерсон</string> /    </dict> /    <dict> /     <key>name</key> /     <string>Дэниэл Лупи</string> /    </dict> /    <dict> /     <key>name</key> /     <string>Скотт Рудин</string> /    </dict> /   </array> /   <key>screenwriters</key> /   <array> /    <dict> /     <key>name</key> /     <string>Пол Томас Андерсон</string> /    </dict> /    <dict> /     <key>name</key> /     <string>Эптон Синклер</string> /    </dict> /   </array> /  </dict> / </plist>VideoID                                       : 1Format                                   : AVCFormat/Info                              : Advanced Video CodecFormat profile                           : [email protected] settings, CABAC                   : YesFormat settings, ReFrames                : 8 framesCodec ID                                 : avc1Codec ID/Info                            : Advanced Video CodingDuration                                 : 2h 38mnBit rate                                 : 3 400 KbpsMaximum bit rate                         : 16.5 MbpsWidth                                    : 1 280 pixelsHeight                                   : 528 pixelsDisplay aspect ratio                     : 2.40:1Frame rate mode                          : VariableFrame rate                               : 23.976 fpsMinimum frame rate                       : 23.810 fpsMaximum frame rate                       : 24.390 fpsColor space                              : YUVChroma subsampling                       : 4:2:0Bit depth                                : 8 bitsScan type                                : ProgressiveBits/(Pixel*Frame)                       : 0.210Stream size                              : 3.76 GiB (88%)Writing library                          : x264 core 112Encoding settings                        : cabac=1 / ref=8 / deblock=1:0:0 / analyse=0x3:0x113 / me=umh / subme=9 / psy=1 / psy_rd=1.00:0.00 / mixed_ref=1 / me_range=24 / chroma_me=1 / trellis=1 / 8x8dct=1 / cqm=0 / deadzone=21,11 / fast_pskip=1 / chroma_qp_offset=-2 / threads=12 / sliced_threads=0 / nr=0 / decimate=1 / interlaced=0 / constrained_intra=0 / bframes=6 / b_pyramid=2 / b_adapt=1 / b_bias=0 / direct=1 / weightb=1 / open_gop=0 / weightp=2 / keyint=240 / keyint_min=23 / scenecut=40 / intra_refresh=0 / rc_lookahead=40 / rc=2pass / mbtree=1 / bitrate=3400 / ratetol=1.0 / qcomp=0.60 / qpmin=3 / qpmax=51 / qpstep=4 / cplxblur=20.0 / qblur=0.5 / ip_ratio=1.40 / aq=1:1.00Language                                 : EnglishEncoded date                             : UTC 2011-11-19 09:52:45Tagged date                              : UTC 2011-11-19 09:59:09Color primaries                          : BT.709-5, BT.1361, IEC 61966-2-4, SMPTE RP177Transfer characteristics                 : BT.709-5, BT.1361Matrix coefficients                      : BT.709-5, BT.1361, IEC 61966-2-4 709, SMPTE RP177Audio #1ID                                       : 2Format                                   : AACFormat/Info                              : Advanced Audio CodecFormat profile                           : LCCodec ID                                 : 40Duration                                 : 2h 38mnBit rate mode                            : VariableBit rate                                 : 170 KbpsMaximum bit rate                         : 255 KbpsChannel(s)                               : 2 channelsChannel positions                        : Front: L RSampling rate                            : 48.0 KHzCompression mode                         : LossyStream size                              : 193 MiB (4%)Title                                    : DUBLanguage                                 : RussianEncoded date                             : UTC 2011-11-19 09:57:33Tagged date                              : UTC 2011-11-19 09:59:09Audio #2ID                                       : 3Format                                   : AACFormat/Info                              : Advanced Audio CodecFormat profile                           : LCCodec ID                                 : 40Duration                                 : 2h 38mnBit rate mode                            : VariableBit rate                                 : 144 KbpsMaximum bit rate                         : 224 KbpsChannel(s)                               : 2 channelsChannel positions                        : Front: L RSampling rate                            : 48.0 KHzCompression mode                         : LossyStream size                              : 161 MiB (4%)Title                                    : MVO (Kinomaniya)Language                                 : RussianEncoded date                             : UTC 2011-11-19 09:58:20Tagged date                              : UTC 2011-11-19 09:59:09Audio #3ID                                       : 4Format                                   : AACFormat/Info                              : Advanced Audio CodecFormat profile                           : LCCodec ID                                 : 40Duration                                 : 2h 38mnBit rate mode                            : VariableBit rate                                 : 136 KbpsMaximum bit rate                         : 212 KbpsChannel(s)                               : 2 channelsChannel positions                        : Front: L RSampling rate                            : 48.0 KHzCompression mode                         : LossyStream size                              : 154 MiB (4%)Title                                    : OriginalLanguage                                 : EnglishEncoded date                             : UTC 2011-11-19 09:58:46Tagged date                              : UTC 2011-11-19 09:59:09Text #1ID                                       : 5Format                                   : Timed textMuxing mode                              : sbtlCodec ID                                 : tx3gDuration                                 : 2h 37mnBit rate mode                            : VariableBit rate                                 : 73 bpsStream size                              : 84.8 KiB (0%)Language                                 : RussianEncoded date                             : UTC 2011-11-19 09:59:09Tagged date                              : UTC 2011-11-19 09:59:09Text #2ID                                       : 6Format                                   : Timed textMuxing mode                              : sbtlCodec ID                                 : tx3gDuration                                 : 2h 30mnBit rate mode                            : VariableBit rate                                 : 47 bpsStream size                              : 51.6 KiB (0%)Language                                 : EnglishEncoded date                             : UTC 2011-11-19 09:59:09Tagged date                              : UTC 2011-11-19 09:59:09Text #3ID                                       : 7Format                                   : Apple textCodec ID                                 : textDuration                                 : 2h 38mnBit rate mode                            : ConstantBit rate                                 : 0Stream size                              : 184 Bytes (0%)Encoded date                             : UTC 2011-11-20 10:04:54Tagged date                              : UTC 2011-11-20 10:04:54

Код:

Код:

x264 [info]: frame I:1668  Avg QP:16.54  size: 80235  PSNR Mean Y:46.90 U:49.89 V:51.60 Avg:47.79 Global:46.93x264 [info]: frame P:120356 Avg QP:19.87  size: 25146  PSNR Mean Y:43.88 U:47.70 V:49.76 Avg:44.93 Global:44.28x264 [info]: frame B:105886 Avg QP:22.49  size:  8297  PSNR Mean Y:42.85 U:48.10 V:50.49 Avg:43.97 Global:42.87x264 [info]: consecutive B-frames: 23.3% 40.6% 14.1% 13.1%  4.7%  1.6%  2.4%x264 [info]: mb I  I16..4: 13.0% 73.4% 13.6%x264 [info]: mb P  I16..4:  0.4%  4.1%  0.4%  P16..4: 45.3% 23.6% 15.2%  0.0%  0.0%    skip:10.9%x264 [info]: mb B  I16..4:  0.0%  0.6%  0.0%  B16..8: 45.1%  7.3%  1.9%  direct: 3.1%  skip:41.9%  L0:44.9% L1:46.7% BI: 8.4%x264 [info]: 8x8 transform intra:81.4% inter:69.4%x264 [info]: coded y,uvDC,uvAC intra: 90.2% 77.5% 47.1% inter: 32.6% 25.6% 2.3%x264 [info]: i16 v,h,dc,p: 51% 11%  9% 29%x264 [info]: i8 v,h,dc,ddl,ddr,vr,hd,vl,hu:  6%  5%  3% 12% 18% 16% 16% 12% 12%x264 [info]: i4 v,h,dc,ddl,ddr,vr,hd,vl,hu:  9%  6%  2% 10% 16% 16% 15% 13% 14%x264 [info]: i8c dc,h,v,p: 39% 26% 18% 17%x264 [info]: Weighted P-Frames: Y:5.2% UV:3.0%x264 [info]: ref P L0: 45.5% 11.3% 16.5%  7.3%  6.1%  4.8%  4.6%  2.5%  1.4%  0.1%x264 [info]: ref B L0: 61.9% 16.9%  8.6%  4.9%  3.9%  3.1%  0.7%x264 [info]: ref B L1: 93.3%  6.7%x264 [info]: SSIM Mean Y:0.9710503 (15.384db)x264 [info]: PSNR Mean Y:43.424 U:47.903 V:50.112 Avg:44.502 Global:43.578 kb/s:3399.12

загрузка...

rutorka.net

[iPad] Нефть (И будет кровь) / There Will Be Blood (Пол Томас Андерсон/ Paul Thomas Anderson) [2007, США, Драма, BDRip, 576p] Dub + Original + sub (rus, eng)

Нефть (И будет кровь) / There Will Be Blood

«И будет кровь»

Год выпуска: 2007Страна: СШАСтудия: Ghoulardi Film Company, Miramax Films, Paramount VantageЖанр: ДрамаПродолжительность: 02:38:26Рейтинг MPAA: RПеревод: Профессиональный (дублированный)Оригинальная аудиодорожка: естьCубтитры: русские и английские

Режиссёр: Пол Томас Андерсон/ Paul Thomas AndersonСценарий: Пол Томас Андерсон, Эптон СинклерПродюссер: Пол Томас Андерсон, Дэниэл Лупи, Джоэнн Селлар

В ролях: Киаран Хайндс, Пол Дэйно, Кевин Дж. О’Коннор, Дэниэл Дэй-Льюис, Джим Мескимен, Кевин Брезнахан, Ханс Хауз, Дэвид Уиллис, Коко Ли, Коллин Фой, Меттью Браден Стрингер, Пол Ф. Томпкинс, Расселл Харвард, Хоуп Элизабет Ривз, Эрика Салливан

Описание:Конец 1920-х, Калифорния. Дэниел Плейнвью (Дэниел Дэй-Льюис получил «Оскар» за эту роль) — старатель, ищущий золото и серебро, но зарабатывающий больше травм, чем денег. Через несколько лет он переключится на черное золото, приобретет сына (история его рождения останется за кадром) и дела пойдут в гору, но одержимость, с которой Дэниел разворачивает свой нефтяной бизнес на крови, грозит бедой, и не только ему одному.

Доп. информация:

Качество исходника: BDRemux - Нефть (И будет кровь) / There Will Be Blood / 2007 / ДБ, СТ / Blu-Ray Remux (1080p)Качество: BDRipРазрешение: 1024x432Формат: MP4Видео: H.264, 2,40:1 , 2200kbit/s; 23.976fps

Аудио 1: Russian/Dub, AAC, 156kbit/s; 2ch; 48KHzАудио 2: English/Original, AAC, 156kbit/s; 2ch; 48KHz

XID: Apple:vendor_id:2007-196604contentID: 278290639Screenwriters: Пол Томас Андерсон, Эптон СинклерProducers: Пол Томас Андерсон, Дэниэл Лупи, Джоэнн СелларDirector: Пол Томас АндерсонCast: Киаран Хайндс, Пол Дэйно, Кевин Дж. О’Коннор, Дэниэл Дэй-Льюис, Джим Мескимен, Кевин Брезнахан, Ханс Хауз, Дэвид Уиллис, Коко Ли, Коллин Фой, Меттью Браден Стрингер, Пол Ф. Томпкинс, Расселл Харвард, Хоуп Элизабет Ривз, Эрика СалливанRating: 5Long Description: Экранизация романа «Нефть» классика американской литературы Эптона Синклера. Действие книги происходит в конце 1920-х в Калифорнии и описывает взлет нефтедобывающей компании, принадлежащей амбициозному и бездушному магнату Плэйнвью.Description: Экранизация романа «Нефть» классика американской литературы Эптона Синклера.Release Date: 2007-09-27T15:00:00ZGenre: DramaArtist: Пол Томас АндерсонName: Нефть

GeneralComplete name : /Users/imac/HandBrake/There.Will.Be.Blood.(pk).2007.x264.BDRip.1024x.m4vFormat : MPEG-4Codec ID : M4VFile size : 2.79 GiBDuration : 2h 38mnOverall bit rate mode : VariableOverall bit rate : 2 520 KbpsMovie name : НефтьPerformer : Пол Томас АндерсонGenre : DramaRecorded date : UTC 2007-09-27 15:00:00Encoded date : UTC 2013-09-12 10:38:12Tagged date : UTC 2013-09-12 10:59:54Cover : Yesdesc : Экранизация романа «Нефть» классика американской литературы Эптона Синклера.ldes : Экранизация романа «Нефть» классика американской литературы Эптона Синклера. Действие книги происходит в конце 1920-х в Калифорнии и описывает взлет нефтедобывающей компании, принадлежащей амбициозному и бездушному магнату Плэйнвью.stik : 9rtng : 0cnID : 278290639xid : Apple:vendor_id:2007-196604iTunEXTC : mpaa|R|400|iTunMOVI : / / / / cast / / / name / Киаран Хайндс / / / name / Пол Дэйно / / / name / Кевин Дж. О’Коннор / / / name / Дэниэл Дэй-Льюис / / / name / Джим Мескимен / / / name / Кевин Брезнахан / / / name / Ханс Хауз / / / name / Дэвид Уиллис / / / name / Коко Ли / / / name / Коллин Фой / / / name / Меттью Браден Стрингер / / / name / Пол Ф. Томпкинс / / / name / Расселл Харвард / / / name / Хоуп Элизабет Ривз / / / name / Эрика Салливан / / / directors / / / name / Пол Томас Андерсон / / / producers / / / name / Пол Томас Андерсон / / / name / Дэниэл Лупи / / / name / Джоэнн Селлар / / / screenwriters / / / name / Пол Томас Андерсон / / / name / Эптон Синклер / / / /

Video #1ID : 1Format : AVCFormat/Info : Advanced Video CodecFormat profile : [email protected] settings, CABAC : YesFormat settings, ReFrames : 9 framesCodec ID : avc1Codec ID/Info : Advanced Video CodingDuration : 2h 38mnBit rate mode : VariableBit rate : 2 200 KbpsWidth : 1 024 pixelsHeight : 432 pixelsDisplay aspect ratio : 2.40:1Frame rate mode : VariableFrame rate : 23.976 fpsMinimum frame rate : 23.810 fpsMaximum frame rate : 24.246 fpsColor space : YUVChroma subsampling : 4:2:0Bit depth : 8 bitsScan type : ProgressiveBits/(Pixel*Frame) : 0.207Stream size : 2.43 GiB (87%)Writing library : x264 core 130 r2273 b3065e6Encoding settings : cabac=1 / ref=9 / deblock=1:0:0 / analyse=0x3:0x113 / me=umh / subme=9 / psy=1 / psy_rd=1.00:0.00 / mixed_ref=1 / me_range=32 / chroma_me=1 / trellis=1 / 8x8dct=1 / cqm=0 / deadzone=21,11 / fast_pskip=1 / chroma_qp_offset=-2 / threads=12 / lookahead_threads=1 / sliced_threads=0 / nr=0 / decimate=1 / interlaced=0 / bluray_compat=0 / constrained_intra=0 / bframes=6 / b_pyramid=2 / b_adapt=2 / b_bias=0 / direct=1 / weightb=1 / open_gop=0 / weightp=2 / keyint=240 / keyint_min=24 / scenecut=40 / intra_refresh=0 / rc_lookahead=40 / rc=2pass / mbtree=1 / bitrate=2200 / ratetol=1.0 / qcomp=0.60 / qpmin=0 / qpmax=69 / qpstep=4 / cplxblur=20.0 / qblur=0.5 / ip_ratio=1.40 / aq=1:1.00Language : EnglishEncoded date : UTC 2013-09-12 10:38:12Tagged date : UTC 2013-09-12 10:42:33Color primaries : BT.709-5, BT.1361, IEC 61966-2-4, SMPTE RP177Transfer characteristics : BT.709-5, BT.1361Matrix coefficients : BT.709-5, BT.1361, IEC 61966-2-4 709, SMPTE RP177

Video #2ID : 7Format : JPEGCodec ID : jpegDuration : 2h 38mnBit rate mode : VariableBit rate : 350 bpsWidth : 640 pixelsHeight : 270 pixelsDisplay aspect ratio : 2.40:1Frame rate mode : ConstantFrame rate : 0.001 fpsColor space : YUVChroma subsampling : 4:2:0Bit depth : 8 bitsCompression mode : LossyBits/(Pixel*Frame) : 2.025Stream size : 342 KiB (0%)Language : EnglishEncoded date : UTC 2013-09-12 10:47:47Tagged date : UTC 2013-09-12 10:47:47

Audio #1ID : 2Format : AACFormat/Info : Advanced Audio CodecFormat profile : LCCodec ID : 40Duration : 2h 38mnBit rate mode : VariableBit rate : 156 KbpsMaximum bit rate : 247 KbpsChannel(s) : 2 channelsChannel positions : Front: L RSampling rate : 48.0 KHzCompression mode : LossyStream size : 177 MiB (6%)Language : RussianEncoded date : UTC 2013-09-12 10:38:12Tagged date : UTC 2013-09-12 10:46:24

Audio #2ID : 3Format : AACFormat/Info : Advanced Audio CodecFormat profile : LCCodec ID : 40Duration : 2h 38mnBit rate mode : VariableBit rate : 156 KbpsMaximum bit rate : 249 KbpsChannel(s) : 2 channelsChannel positions : Front: L RSampling rate : 48.0 KHzCompression mode : LossyStream size : 177 MiB (6%)Language : EnglishEncoded date : UTC 2013-09-12 10:38:12Tagged date : UTC 2013-09-12 10:46:59

Text #1ID : 4Format : Timed textMuxing mode : sbtlCodec ID : tx3gDuration : 2h 37mnBit rate mode : VariableBit rate : 73 bpsStream size : 84.8 KiB (0%)Language : RussianEncoded date : UTC 2013-09-12 10:38:13Tagged date : UTC 2013-09-12 10:47:25

Text #2ID : 5Format : Timed textMuxing mode : sbtlCodec ID : tx3gDuration : 2h 30mnBit rate mode : VariableBit rate : 47 bpsStream size : 51.6 KiB (0%)Language : EnglishEncoded date : UTC 2013-09-12 10:38:13Tagged date : UTC 2013-09-12 10:47:45

Text #3ID : 6Format : Apple textCodec ID : textDuration : 2h 38mnBit rate mode : VariableBit rate : 0 bpsStream size : 294 Bytes (0%)Language : EnglishEncoded date : UTC 2013-09-12 10:47:45Tagged date : UTC 2013-09-12 10:47:45

Menu00:00:00.000 : Вступление00:14:10.057 : Дэниел и H.W.00:31:32.223 : Воскресное ранчо00:51:53.860 : Нефтяной фонтан01:11:16.563 : Генри Плэйнвью01:34:29.788 : Баптизм01:56:59.011 : Трубопровод/192702:18:44.023 : Боулинг

x264 [info]: frame I:1279 Avg QP:14.22 size: 74506 PSNR Mean Y:48.63 U:52.22 V:53.59 Avg:49.59 Global:48.72x264 [info]: frame P:46139 Avg QP:17.23 size: 27447 PSNR Mean Y:45.78 U:50.05 V:51.50 Avg:46.82 Global:45.95x264 [info]: frame B:180492 Avg QP:20.13 size: 6936 PSNR Mean Y:44.41 U:49.91 V:51.40 Avg:45.58 Global:44.64x264 [info]: consecutive B-frames: 1.4% 2.1% 5.7% 12.9% 12.4% 59.0% 6.6%x264 [info]: mb I I16..4: 12.8% 66.0% 21.2%x264 [info]: mb P I16..4: 1.0% 7.4% 1.7% P16..4: 36.0% 28.2% 17.9% 0.0% 0.0% skip: 7.9%x264 [info]: mb B I16..4: 0.1% 1.1% 0.2% B16..8: 40.2% 10.5% 3.1% direct: 4.5% skip:40.4% L0:42.4% L1:45.1% BI:12.5%x264 [info]: 8x8 transform intra:74.7% inter:64.4%x264 [info]: coded y,uvDC,uvAC intra: 90.1% 81.2% 47.9% inter: 27.7% 22.0% 1.8%x264 [info]: i16 v,h,dc,p: 46% 11% 9% 33%x264 [info]: i8 v,h,dc,ddl,ddr,vr,hd,vl,hu: 8% 7% 5% 11% 16% 15% 14% 12% 13%x264 [info]: i4 v,h,dc,ddl,ddr,vr,hd,vl,hu: 10% 7% 3% 9% 15% 15% 14% 12% 14%x264 [info]: i8c dc,h,v,p: 40% 26% 19% 15%x264 [info]: Weighted P-Frames: Y:7.1% UV:2.6%x264 [info]: ref P L0: 43.1% 12.0% 17.6% 7.2% 6.1% 4.4% 4.2% 2.4% 2.5% 0.4% 0.0%x264 [info]: ref B L0: 71.9% 12.1% 6.2% 3.3% 2.5% 2.2% 1.3% 0.4%x264 [info]: ref B L1: 91.8% 8.2%x264 [info]: SSIM Mean Y:0.9799954 (16.989db)x264 [info]: PSNR Mean Y:44.713 U:49.948 V:51.436 Avg:45.851 Global:44.892 kb/s:2199.61

rutorka.net

[iPhone] Нефть / И будет кровь / There Will Be Blood (Пол Томас Андерсон / Paul Thomas Anderson) [2007, Драма, HDRip, 480x200]

Перейти: Выберите форум------------------НОВОСТИ, ПРАВИЛА и FAQ   Новости и объявления сайта      Новости сайта      Новости сети      Мировые новости   Правила, Основные инструкции и FAQКИНО, ВИДЕО и ТВ   Зарубежное кино      Новинки кино      Фильмы 2016-2017      Боевики      Триллеры      Приключения      Фантастика, Фэнтези      Детское, Семейное кино      Комедии      Драмы, Мелодрамы      Ужасы      Детективы      Криминал      Военные      Вестерн      Исторические      Документальные      Индийское кино      Дилогии      Трилогии      Квадралогии      Пенталогии      Антологии      Трейлеры и доп.материалы   Отечественное кино      Новинки кино      Боевики      Триллеры      Приключения      Фантастика, Фэнтези      Сказки      Детское, Семейное кино      Комедии      Драмы, Мелодрамы      Ужасы      Детективы      Криминал      Военные      Катастрофы      TB-Шоу      Юмор|Приколы      Документальные      Трейлеры и доп.материалы      Кино СССР   Видео HD      Blu-ray      BD-Remux      720p | 1080p      HD-Video в 3D      Наше кино (HD Video)   Мультфильмы      Зарубежные мультфильмы      Зарубежные мультфильмы (HD Video)      Зарубежные мультфильмы (DVD Video)      Отечественные мультфильмы      Отечественные мультфильмы (HD Video)      Отечественные мультфильмы (DVD Video)      3D Мультфильмы   Сериалы      Новинки      Отечественные сериалы      Зарубежные сериалы   Видео DVD      DVD-5      DVD-9   Телевидение      Discovery      Научно-популярные      Путешествия и туризм      Тайны и загадки      Техника и вооружение      Катастрофы   Анимэ   Фитнес - Разум и ТелоМУЗЫКА и КЛИПЫ   Музыка МР3      Отечественная музыка      Отечественная музыка (сборники)      Club,| Trance,| House,| Drum & Bass         Trance         Drum & Bass         House         Easy listening      Шансон|Авторская песня      Зарубежная музыка      Зарубежная музыка (сборники)      Rap, Hip-hop, R'n'B      Рок, Панк, Метал, Альтернатива      Classic Rock & Hard Rock      Progressive & Art-Rock      AOR (Melodic Hard Rock, Arena rock)      Heavy, Power, Progressive (Metal)      Alternative & Nu-metal      Русский Рок      Джаз, Блюз, Соул      Дискографии (Отечественные)      Дискографии (Зарубежные)      50/50 (сборники)      Советская эстрада      Instrumental/New Age/Meditative/Relax      Классика   Lossless      Отечественная музыка      Отечественная музыка (сборники)      Club,| Trance,| House,| Drum & Bass      Шансон|Авторская песня      Зарубежная музыка      Rap, Hip-hop, R'n'B      Рок, Панк, Метал, Альтернатива      Classic Rock & Hard Rock      Progressive & Art-Rock      Heavy, Power, Progressive (Metal)      Alternative & Nu-metal      Джаз, Блюз, Соул      Blues (Texas, Chicago, Modern and Others)      Jazz Fusion      Русский рок      Дискографии (Отечественные)      Дискографии (Зарубежные)      Классика      Instrumental/New Age/Meditative/Relax   HD Audio и Многоканальная Музыка      DTS CD / SACD-R      DVD-Audio      Vinyl-Rip и Hand-Made      Hi-Res stereo (рок)      Hi-Res stereo (Джаз и Блюз)      Hi-Res stereo (Поп)      Hi-Res stereo (Электронная музыка)      Зарубежный рок (оцифровки)      Зарубежная поп-музыка (оцифровки)      Отечественная поп-музыка (оцифровки)      Электронная музыка (оцифровки)      Классика и классика в современной обработке (многоканальная музыка)      Классика (HD Audio)   Клипы      Клипы      Клипы (HD-Video)      Караоке (видео)      Концерты      Концерты (DVD-Video)      Концерты (HD-Video)   Тестовые диски для настройки аудио/видео аппаратурыИГРЫ   PC игры      Горячие Новинки      Гонки      Action      Стратегии      RPG      Аркады      Авиасимуляторы и Автосимуляторы      Детские      Другие симуляторы      Приключения и квесты|я ищу      Логические      Мини-игры      Сборники игр      Старые игры      Моды, Руссификаторы, Таблетки, Дополнения   Консольные игры      XBOX 360      PS|PS2|PS3      PSP      Программы | ПрошивкиПРОГРАММЫ   Windows      Сборки Windows 10      OC Windows 8      OC Windows 7      OC Windows XP      Системные программы      Офисные системы      Аудио- и видео-CD- проигрыватели      Антивирусы, Файерволы      Редакторы видео и аудио      Программы для интернета и сетей      Драйвера      WPI      САПР      Разные пользовательские программы   LinuxЛИТЕРАТУРА   Книги      Собрания сочинений      Многоавторские сборники      Детективы и Боевики      Фантастика, фэнтези      Приключения      Женский роман      Триллеры. Мистика. Ужасы      Сатира, юмор      Исторические книги      Классика, современная проза и поэзия      Детская литература      Русская литература      Зарубежная литература (XX и XXI век)   Аудиокниги      Фантастика, фэнтези      Детектив и Боевики      Приключения      Современная проза и поэзия      Российская фантастика, фэнтези, мистика, ужасы, фанфики      Зарубежная фантастика, фэнтези, мистика, ужасы      Зарубежная литература      Детские литература      Любовно-фантастический роман      Историческая      Сатира, юмор      Другие   Журналы и Документация      Мужские журналы      Женские журналы      На досуге      Научно-популярные журналы      Автомобильные журналы      Детские журналы      Компьютерная литература      Кулинария      Вязание, вышивка, кройка, шитьё      Домоводство      Техническая литература      Научно-популярная лит-ра      Энциклопедии и словари      Нетрадиционная медицина      Многопредметные коллекции (подборки)   Мультимедийные и интерактивные издания      Интерактивные обучающие и развивающие материалы      Обучающие издания для детей      Кулинария. Цветоводство. Домоводство      Видеокурсы      Фотография, Видео      Игра на гитаре      Строительство, ремонт и дизайн   Литература и прочие Обучающие материалы      Настольные игры и Поделки      Развивающее Видео для детей      Эзотерика, гадания, магия, фен-шуй      Популярная психология      Рисунок, графический дизайн      Мода. Стиль. Этикет      Компьютерные сети и безопасность      Работа с видео      Астрология      Физкультура, фитнес, бодибилдинг      Веб-дизайн и программирование   Ремонт и эксплуатация транспортных средств      Программы по диагностике и ремонту      Книги по ремонту/обслуживанию/эксплуатации ТС      Виртуальная автошкола      Документальные/познавательные фильмы      Top Gear/Топ Гир   Обучение иностранным языкам      Английский язык (для взрослых)      Немецкий язык      Французский язык      Испанский язык      Итальянский язык      Финский язык      Японский язык      Китайский язык      Арабский язык      Русский язык как иностранныйМОБИЛЬНЫЕ УСТРОЙСТВА   Mobile/PDA      Android      ГИС, системы навигации и карты      Программы для PC   Mobile Игры, Фильмы, Музыка и прочее      Android игры      Видео для смартфонов и КПК      Фильмы для iPod, iPhone, iPad      Аудиокниги (AAC, ALAC)      Музыка (АСС)АРХИВ   Мусор 

rutorka.net